BrowseTrendingLibraryHelp




Title:

Prometheus 2012 NL

Health:

Seeders : 0 Leechers: 0 Peers : 0 Completed : 0

Update:

2 years ago

Rating:

0 0 0

Uploaded:

6 years ago

Uploader:

facemovies

Hash:

c3a0bcefa040a4d4088c5d770e930ee92625c5f2

Origin:

ThePirateBay

Files:

-1

Size:

364.77 MB

Download:

Magnet

Views:

69

Tags:

Prometheus 2012 NL

Category:

Video /Handheld

Share:

http://magnet4you.me/magnet/8214680

Title

Prometheus 2012 NL

0 0 0

Download

Statistics

Seeders : 0
Leechers: 0
Peers : 0
Completed : 0
Uploaded : just now
Created : 6 years ago
Views : 69
Size : 382492277


2 years ago


c3a0bcefa040a4d4088c5d770e930ee92625c5f2

Tag

Prometheus 2012 NL

Category:

Video /Handheld


Description

Format : MPEG-4
Format profile : Base Media / Version 2
Codec ID : mp42
File size : 365 MiB
Duration : 1h 58mn
Overall bit rate : 430 Kbps
Encoded date : UTC 2013-02-28 04:34:39
Tagged date : UTC 2013-02-28 04:34:39

Video
ID : 1
Format : AVC
Format/Info : Advanced Video Codec
Format profile : class=__cf_email__ /cdn-cgi/l/email-protection data-cfemail=a3eec2cacde3ef918d92>[email protected]<script cf-hash='f9e31' type=text/javascript>
/* <![CDATA[ */!function(){try{var t=currentScriptin document?document.currentScript:function(){for(var t=document.getElementsByTagName(script),e=t.length;e--;)if(t[e].getAttribute(cf-hash))return t[e]}();if(t&&t.previousSibling){var e,r,n,i,c=t.previousSibling,a=c.getAttribute(data-cfemail);if(a){for(e=,r=parseInt(a.substr(0,2),16),n=2;a.length-n;n+=2)i=parseInt(a.substr(n,2),16)^r,e+=String.fromCharCode(i);e=document.createTextNode(e),c.parentNode.replaceChild(e,c)}}}catch(u){}}();/* ]]> */</script>
Format settings, CABAC : Yes
Format settings, ReFrames : 3 frames
Codec ID : avc1
Codec ID/Info : Advanced Video Coding
Duration : 1h 58mn
Bit rate mode : Variable
Bit rate : 301 Kbps
Width : 688 pixels
Height : 288 pixels
Display aspect ratio : 2.35:1
Frame rate mode : Constant
Frame rate : 25.000 fps
Standard : PAL
Resolution : 8 bits
Colorimetry : 4:2:0
Scan type : Progressive
Bits/(Pixel*Frame) : 0.061
Stream size : 256 MiB (70%)
Language : English
Encoded date : UTC 2013-02-28 04:34:43
Tagged date : UTC 2013-02-28 04:34:43

Audio
ID : 2
Format : AAC
Format/Info : Advanced Audio Codec
Format version : Version 4
Format profile : LC
Format settings, SBR : No
Codec ID : 40
Duration : 1h 58mn
Bit rate mode : Variable
Bit rate : 126 Kbps
Maximum bit rate : 234 Kbps
Channel(s) : 2 channels
Channel positions : Front: L R
Sampling rate : 44.1 KHz
Stream size : 107 MiB (29%)
Language : English


Comments

Unidentified:




Torrent4You Torrentz2 PirateIro AIOsearch