BrowseTrendingLibraryHelp




Title:

Fantastic Beasts_ The Crimes of Grindelwald 2018 CAMRip OpenTsubasa

Health:

Seeders : 5 Leechers: 4 Peers : 9 Completed : 2900

Update:

7 months ago

Rating:

0 0 0

Uploaded:

8 months ago

Uploader:

Unknown

Hash:

8855c8c4d4d8e9e3e9bc48cc6ce0f2e7b8eb2c1c

Origin:

Torrent4You

Size:

2.31 GB

Download:

Magnet

Views:

141

Tags:

Fantastic Beasts_ The Crimes of Grindelwald 2018 CAMRip OpenTsubasa

Category:

Other /E-Books

Share:

http://magnet4you.me/magnet/16593815

Title

Fantastic Beasts_ The Crimes of Grindelwald 2018 CAMRip OpenTsubasa

0 0 0

Download

Statistics

Seeders : 5
Leechers: 4
Peers : 9
Completed : 2900
Uploaded : just now
Created : 8 months ago
Views : 141
Size : 2484122008


7 months ago


8855c8c4d4d8e9e3e9bc48cc6ce0f2e7b8eb2c1c

Tag

Fantastic Beasts_ The Crimes of Grindelwald 2018 CAMRip OpenTsubasa

Category:

Other /E-Books


Description

http://movies.opentsubasa.com

The second installment of the "Fantastic Beasts" series featuring the adventures of Magizoologist Newt Scamander.
Director: David Yates
Writers: J.K. Rowling, J.K. Rowling (based upon characters created by)
Stars: Eddie Redmayne, Katherine Waterston, Dan Fogler

[img]http://movies.opentsubasa.com/wp-content/uploads/sites/8/2018/12/MediaInfo-300x80.png[/img]

General
Complete name : Fantastic Beasts_ The Crimes of Grindelwald (2018)-[OpenTsubasa].mp4
Format : MPEG-4
Format profile : Base Media
Codec ID : isom (isom/iso2/avc1/mp41)
File size : 2.31 GiB
Duration : 2 h 5 min
Overall bit rate mode : Variable
Overall bit rate : 2 641 kb/s
Movie name : www.movies.opentsubasa.com
Encoded date : UTC 2018-12-10 12:03:23
Tagged date : UTC 2018-12-10 12:03:23
Writing application : Lavf51.12.1
Comment : www.movies.opentsubasa.com

Video
ID : 1
Format : AVC
Format/Info : Advanced Video Codec
Format profile : [email protected]
Format settings : 1 Ref Frames
Format settings, CABAC : No
Format settings, RefFrames : 1 frame
Format settings, GOP : M=1, N=12
Codec ID : avc1
Codec ID/Info : Advanced Video Coding
Duration : 2 h 5 min
Bit rate : 2 508 kb/s
Width : 1 280 pixels
Height : 720 pixels
Display aspect ratio : 16:9
Frame rate mode : Constant
Frame rate : 29.970 (30000/1001) FPS
Color space : YUV
Chroma subsampling : 4:2:0
Bit depth : 8 bits
Scan type : Progressive
Bits/(Pixel*Frame) : 0.091
Stream size : 2.20 GiB (95%)
Encoded date : UTC 2018-12-10 12:03:23
Tagged date : UTC 2018-12-10 12:03:23
Codec configuration box : avcC

Audio
ID : 2
Format : AAC LC
Format/Info : Advanced Audio Codec Low Complexity
Codec ID : mp4a-40-2
Duration : 2 h 5 min
Bit rate mode : Variable
Bit rate : 128 kb/s
Channel(s) : 2 channels
Channel layout : L R
Sampling rate : 44.1 kHz
Frame rate : 43.066 FPS (1024 SPF)
Compression mode : Lossy
Stream size : 115 MiB (5%)
Encoded date : UTC 2018-12-10 12:03:23
Tagged date : UTC 2018-12-10 12:03:23


Trackers history

Date
6 months ago 5 4 2K
8 months ago 1 14 0

Comments

Unidentified:




Torrent4You Torrentz2 PirateIro AIOsearch