BrowseTrendingLibraryHelp




Title:

Gold 2018 Hindi HDRip OpenTsubasa

Health:

Seeders : 1 Leechers: 0 Peers : 1 Completed : 0

Update:

2 weeks ago

Rating:

0 0 0

Uploaded:

1 week ago

Uploader:

Unknown

Hash:

54ce893d0d853dc570395d3b914805a30212c104

Origin:

Torrent4You

Size:

2.74 GB

Download:

Magnet

Views:

4

Tags:

Gold 2018 Hindi HDRip OpenTsubasa

Category:

Video /HD - Movies

Share:

http://magnet4you.me/magnet/16592969

Title

Gold 2018 Hindi HDRip OpenTsubasa

0 0 0

Download

Statistics

Seeders : 1
Leechers: 0
Peers : 1
Completed : 0
Uploaded : just now
Created : 1 week ago
Views : 4
Size : 2942450510


2 weeks ago


54ce893d0d853dc570395d3b914805a30212c104

Tag

Gold 2018 Hindi HDRip OpenTsubasa

Category:

Video /HD - Movies


Description

http://movies.opentsubasa.com/


Format : MPEG-4
Format profile : Base Media
Codec ID : isom (isom/iso2/avc1/mp41)
File size : 2.74 GiB
Duration : 2 h 25 min
Overall bit rate mode : Variable
Overall bit rate : 2 692 kb/s
Movie name : Gold (2018) Hindi HDRip [OpenTsubasa]
Album : www.movies.opentsubasa.com
Performer : www.movies.opentsubasa.com
Recorded date : 2018
Encoded date : UTC 2018-11-06 11:23:30
Tagged date : UTC 2018-11-06 11:23:30
Writing application : Lavf51.12.1

Video
ID : 1
Format : AVC
Format/Info : Advanced Video Codec
Format profile : [email protected]
Format settings : 1 Ref Frames
Format settings, CABAC : No
Format settings, RefFrames : 1 frame
Format settings, GOP : M=1, N=12
Codec ID : avc1
Codec ID/Info : Advanced Video Coding
Duration : 2 h 25 min
Bit rate : 2 560 kb/s
Width : 1 280 pixels
Height : 720 pixels
Display aspect ratio : 16:9
Frame rate mode : Constant
Frame rate : 25.000 FPS
Color space : YUV
Chroma subsampling : 4:2:0
Bit depth : 8 bits
Scan type : Progressive
Bits/(Pixel*Frame) : 0.111
Stream size : 2.61 GiB (95%)
Encoded date : UTC 2018-11-06 11:23:30
Tagged date : UTC 2018-11-06 11:23:30
Codec configuration box : avcC

Audio
ID : 2
Format : AAC LC
Format/Info : Advanced Audio Codec Low Complexity
Codec ID : mp4a-40-2
Duration : 2 h 25 min
Bit rate mode : Variable
Bit rate : 127 kb/s
Channel(s) : 2 channels
Channel layout : L R
Sampling rate : 44.1 kHz
Frame rate : 43.066 FPS (1024 SPF)
Compression mode : Lossy
Stream size : 133 MiB (5%)
Language : Hindi
Encoded date : UTC 2018-11-06 11:23:30
Tagged date : UTC 2018-11-06 11:23:30


Comments

Unidentified:




Torrent4You Torrentz2 PirateIro