BrowseTrendingLibraryHelp




Title:

The Family 2013 Dual Audio Hindi DD2 0 720p BluRay x264 AAC ESubs ExtraMovies mkv

Health:

Seeders : 61 Leechers: 102 Peers : 163 Completed : 199

Update:

6 months ago

Rating:

0 0 0

Uploaded:

6 months ago

Uploader:

Unknown

Hash:

052fda8ed7caabdf169745fe6918187d89c618d7

Origin:

Torrent4You

Size:

937.24 MB

Download:

Magnet

Views:

30

Tags:

The Family 2013 Dual Audio Hindi DD2 720p BluRay x264 AAC ESubs ExtraMovies mkv

Category:

Video /HD - Movies

Share:

http://magnet4you.me/magnet/16582969

Title

The Family 2013 Dual Audio Hindi DD2 0 720p BluRay x264 AAC ESubs ExtraMovies mkv

0 0 0

Download

Statistics

Seeders : 61
Leechers: 102
Peers : 163
Completed : 199
Uploaded : just now
Created : 6 months ago
Views : 30
Size : 982771349


6 months ago


052fda8ed7caabdf169745fe6918187d89c618d7

Tag

The Family 2013 Dual Audio Hindi DD2 720p BluRay x264 AAC ESubs ExtraMovies mkv

Category:

Video /HD - Movies


Description

Movie Info

General
Unique ID : 210893364413081439803546675893051158545 (0x9EA895A5B23597D8A8DF523218A17011)
Complete name : The Family (2013) Dual Audio [Hindi-DD2.0] 720p BluRay x264 AAC ESubs - ExtraMovies
Format : Matroska
Format version : Version 4 / Version 2
File size : 937 MiB
Duration : 1 h 46 min
Overall bit rate : 1 225 kb/s
Movie name : ExtraMovies.cc - The Family (2013) 720p BluRay Dual Audio Hindi DD2.0+Eng x264 AAC
Encoded date : UTC 2018-03-12 11:07:59
Writing application : mkvmerge v20.0.0 ('I Am The Sun') 64-bit
Writing library : libebml v1.3.5 + libmatroska v1.4.8

Video
ID : 1
Format : AVC
Format/Info : Advanced Video Codec
Format profile : [email protected]
Format settings : CABAC / 8 Ref Frames
Format settings, CABAC : Yes
Format settings, RefFrames : 8 frames
Codec ID : V_MPEG4/ISO/AVC
Duration : 1 h 46 min
Bit rate : 999 kb/s
Width : 1 280 pixels
Height : 544 pixels
Display aspect ratio : 2.35:1
Frame rate mode : Constant
Frame rate : 23.976 FPS
Color space : YUV
Chroma subsampling : 4:2:0
Bit depth : 8 bits
Scan type : Progressive
Bits/(Pixel*Frame) : 0.060
Stream size : 764 MiB (81%)
Title : ExtraMovies.cc
Writing library : x264 core 142 r2479 dd79a61
Encoding settings : cabac=1 / ref=8 / deblock=1:0:0 / analyse=0x3:0x113 / me=umh / subme=9 / psy=1 / psy_rd=1.00:0.00 / mixed_ref=1 / me_range=16 / chroma_me=1 / trellis=2 / 8x8dct=1 / cqm=0 / deadzone=21,11 / fast_pskip=1 / chroma_qp_offset=-2 / threads=12 / lookahead_threads=1 / sliced_threads=0 / nr=0 / decimate=1 / interlaced=0 / bluray_compat=0 / constrained_intra=0 / bframes=3 / b_pyramid=2 / b_adapt=2 / b_bias=0 / direct=3 / weightb=1 / open_gop=0 / weightp=2 / keyint=240 / keyint_min=24 / scenecut=40 / intra_refresh=0 / rc_lookahead=40 / rc=2pass / mbtree=1 / bitrate=999 / ratetol=1.0 / qcomp=0.60 / qpmin=0 / qpmax=69 / qpstep=4 / cplxblur=20.0 / qblur=0.5 / vbv_maxrate=62500 / vbv_bufsize=78125 / nal_hrd=none / filler=0 / ip_ratio=1.40 / aq=1:1.00
Default : Yes
Forced : No
Color range : Limited
Color primaries : BT.709
Transfer characteristics : BT.709
Matrix coefficients : BT.709

Audio #1
ID : 2
Format : AAC
Format/Info : Advanced Audio Codec
Format profile : LC
Codec ID : A_AAC-2
Duration : 1 h 46 min
Bit rate : 128 kb/s
Channel(s) : 2 channels
Channel positions : Front: L R
Sampling rate : 48.0 kHz
Frame rate : 46.875 FPS (1024 SPF)
Compression mode : Lossy
Delay relative to video : -84 ms
Stream size : 97.9 MiB (10%)
Title : ExtraMovies.cc
Language : Hindi
Default : Yes
Forced : No

Audio #2
ID : 3
Format : AAC
Format/Info : Advanced Audio Codec
Format profile : HE-AAC / LC
Format settings : NBC
Codec ID : A_AAC-5
Duration : 1 h 46 min
Bit rate : 96.0 kb/s
Channel(s) : 6 channels
Channel positions : Front: L C R, Side: L R, LFE
Sampling rate : 48.0 kHz / 24.0 kHz
Frame rate : 23.438 FPS (1024 SPF)
Compression mode : Lossy
Delay relative to video : -105 ms
Stream size : 73.4 MiB (8%)
Title : ExtraMovies.cc
Language : English
Default : No
Forced : No

Text
ID : 4
Format : UTF-8
Codec ID : S_TEXT/UTF8
Codec ID/Info : UTF-8 Plain Text
Duration : 1 h 45 min
Bit rate : 80 b/s
Count of elements : 1691
Stream size : 62.6 KiB (0%)
Language : English
Default : Yes
Forced : No


Comments

Unidentified:




Torrent4You Torrentz2 PirateIro