BrowseTrendingLibraryHelp




Title:

Zubaan 2016 Hindi 720p WEB HD AAC 2 0 x264

Health:

Seeders : 112 Leechers: 183 Peers : 295 Completed : 268

Update:

9 months ago

Rating:

0 0 0

Uploaded:

9 months ago

Uploader:

Unknown

Hash:

e91c23b6e22513b43dd559744a963ba53710e3ad

Origin:

Torrent4You

Size:

902.42 MB

Download:

Magnet

Views:

27

Tags:

Zubaan 2016 Hindi 720p WEB HD AAC x264

Category:

Video /HD - Movies

Share:

http://magnet4you.me/magnet/16582968

Title

Zubaan 2016 Hindi 720p WEB HD AAC 2 0 x264

0 0 0

Download

Statistics

Seeders : 112
Leechers: 183
Peers : 295
Completed : 268
Uploaded : just now
Created : 9 months ago
Views : 27
Size : 946260976


9 months ago


e91c23b6e22513b43dd559744a963ba53710e3ad

Tag

Zubaan 2016 Hindi 720p WEB HD AAC x264

Category:

Video /HD - Movies


Description

General
Format : Matroska
Format version : Version 4 / Version 2
File size : 902 MiB
Duration : 1 h 51 min
Overall bit rate : 1 131 kb/s

Video
ID : 2
Format : AVC
Format/Info : Advanced Video Codec
Format profile : [email protected]
Format settings : CABAC / 4 Ref Frames
Format settings, CABAC : Yes
Format settings, RefFrames : 4 frames
Codec ID : V_MPEG4/ISO/AVC
Duration : 1 h 51 min
Bit rate : 1 000 kb/s
Width : 1 280 pixels
Height : 548 pixels
Display aspect ratio : 2.35:1
Frame rate mode : Constant
Frame rate : 25.000 FPS
Color space : YUV
Chroma subsampling : 4:2:0
Bit depth : 8 bits
Scan type : Progressive
Bits/(Pixel*Frame) : 0.057
Stream size : 799 MiB (88%)
Writing library : x264 core 148 r2708 86b7198
Default : Yes
Forced : No

Audio
ID : 1
Format : AAC
Format/Info : Advanced Audio Codec
Format profile : LC
Codec ID : A_AAC-2
Duration : 1 h 51 min
Bit rate : 128 kb/s
Channel(s) : 2 channels
Channel positions : Front: L R
Sampling rate : 44.1 kHz
Frame rate : 43.066 FPS (1024 SPF)
Compression mode : Lossy
Stream size : 102 MiB (11%)
Default : Yes
Forced : No


Comments

Unidentified:




Torrent4You Torrentz2 PirateIro