BrowseTrendingLibraryHelp




Title:

Saw Legacy 2017 1080p h264 ita eng sub ita MIRCrew

Health:

Seeders : 107 Leechers: 51 Peers : 158 Completed : 459

Update:

3 months ago

Rating:

0 0 0

Uploaded:

3 months ago

Uploader:

Unknown

Hash:

c39eb08fc702c0f762076b0f678c527fd8430bbd

Origin:

Torrent4You

Size:

1.69 GB

Download:

Magnet

Views:

27

Tags:

Saw Legacy 2017 1080p h264 ita eng sub ita MIRCrew

Category:

Video /HD - Movies

Share:

http://magnet4you.me/magnet/16582869

Title

Saw Legacy 2017 1080p h264 ita eng sub ita MIRCrew

0 0 0

Download

Statistics

Seeders : 107
Leechers: 51
Peers : 158
Completed : 459
Uploaded : just now
Created : 3 months ago
Views : 27
Size : 1817564018


3 months ago


c39eb08fc702c0f762076b0f678c527fd8430bbd

Tag

Saw Legacy 2017 1080p h264 ita eng sub ita MIRCrew

Category:

Video /HD - Movies


Description

Jigsaw - Saw Legacy (2017).1080p.H264.italian.english.Ac3-sub.ita.MIRCrew


NO FOUND ONLY ORIGINAL RELEASE



My release is always in double track audio italian and Original audio
for select it use VLC or dvd player home
not use wmp

Saw Legacy - Jigsaw (2017)

Qualità MIRCrew in HD 1080p da 1,7 gb







GENERE: Horror, Thriller
ANNO: 2017
REGIA: Michael Spierig, Peter Spierig
PAESE: USA, Canada
DURATA: 91 Min
DISTRIBUZIONE: Eagle Pictures



Laura Vandervoort, Tobin Bell, Matt Passmore, Callum Keith Rennie, Hannah Emily Anderson, Brittany Allen, Tina Jung



Il titolo, Saw: Legacy, rivela un piccolo indizio sulla trama dell'ottavo capitolo della saga dell'Enigmista. La sanguinaria eredità di John Kramer (Tobin Bell), malato terminale e aspirante suicida, preda infine di una lucida follia omicida, viene raccolta da un assassino sconosciuto che miete vittime in città.



Bodies are turning up around the city, each having met a uniquely gruesome demise. As the investigation proceeds, evidence points to one suspect: John Kramer, the man known as Jigsaw, who has been dead for over 10 years.











[spoiler]
General
Unique ID : 226172855497042645490595410039144684028 (0xAA274EB8618F25E8AC6C9F1D877399FC)
Complete name : Saw Legacy (2017).1080p.h264.ita.eng.sub.ita-MIRCrew\Saw Legacy (2017).1080p.h264.ita.eng.sub.ita-MIRCrew.mkv
Format : Matroska
Format version : Version 2
File size : 1.69 GiB
Duration : 1h 32mn
Overall bit rate : 2 627 Kbps
Encoded date : UTC 2018-02-24 20:40:15
Writing application : mkvmerge v5.4.0 ('Piper') built on Mar 10 2012 13:34:39
Writing library : Lavf54.63.100

Video
ID : 1
Format : AVC
Format/Info : Advanced Video Codec
Format profile : [email protected]
Format settings, CABAC : Yes
Format settings, ReFrames : 2 frames
Codec ID : V_MPEG4/ISO/AVC
Duration : 1h 32mn
Bit rate : 1 678 Kbps
Nominal bit rate : 1 800 Kbps
Width : 1 920 pixels
Height : 800 pixels
Display aspect ratio : 2.40:1
Frame rate mode : Variable
Frame rate : 23.976 fps
Color space : YUV
Chroma subsampling : 4:2:0
Bit depth : 8 bits
Scan type : Progressive
Bits/(Pixel*Frame) : 0.046
Stream size : 1.08 GiB (64%)
Writing library : x264 core 130 r2273
Encoding settings : cabac=1 / ref=2 / deblock=1:0:0 / analyse=0x1:0x131 / me=hex / subme=7 / psy=1 / psy_rd=1.00:0.00 / mixed_ref=0 / me_range=16 / chroma_me=1 / trellis=1 / 8x8dct=0 / cqm=0 / deadzone=21,11 / fast_pskip=1 / chroma_qp_offset=-2 / threads=3 / lookahead_threads=1 / sliced_threads=0 / nr=0 / decimate=1 / interlaced=0 / bluray_compat=0 / constrained_intra=0 / bframes=3 / b_pyramid=0 / b_adapt=1 / b_bias=0 / direct=3 / weightb=1 / open_gop=0 / weightp=2 / keyint=230 / keyint_min=23 / scenecut=40 / intra_refresh=0 / rc_lookahead=40 / rc=abr / mbtree=1 / bitrate=1800 / ratetol=1.0 / qcomp=0.60 / qpmin=10 / qpmax=69 / qpstep=4 / vbv_maxrate=24000 / vbv_bufsize=24000 / nal_hrd=none / ip_ratio=1.40 / aq=1:1.00
Language : Italian
Default : Yes
Forced : No
DURATION : 01:32:15.488000000
NUMBER_OF_FRAMES : 132719
NUMBER_OF_BYTES : 7670663722
_STATISTICS_WRITING_APP : mkvmerge v9.5.0 ('Quiet Fire') 64bit
_STATISTICS_WRITING_DATE_UTC : 2018-02-24 20:40:15
_STATISTICS_TAGS : BPS DURATION NUMBER_OF_FRAMES NUMBER_OF_BYTES

Audio #1
ID : 2
Format : AC-3
Format/Info : Audio Coding 3
Mode extension : CM (complete main)
Codec ID : A_AC3
Duration : 1h 32mn
Bit rate mode : Constant
Bit rate : 448 Kbps
Channel(s) : 2 channels
Channel positions : Front: L R
Sampling rate : 48.0 KHz
Bit depth : 16 bits
Compression mode : Lossy
Delay relative to video : -5ms
Stream size : 296 MiB (17%)
Title : ita c3 5.1
Language : Italian
Default : Yes
Forced : No
DURATION : 01:32:15.553000000
NUMBER_OF_FRAMES : 518958
NUMBER_OF_BYTES : 1044143496
_STATISTICS_WRITING_APP : mkvmerge v9.5.0 ('Quiet Fire') 64bit
_STATISTICS_WRITING_DATE_UTC : 2018-02-24 20:40:15
_STATISTICS_TAGS : BPS DURATION NUMBER_OF_FRAMES NUMBER_OF_BYTES

Audio #2
ID : 3
Format : AC-3
Format/Info : Audio Coding 3
Mode extension : CM (complete main)
Codec ID : A_AC3
Duration : 1h 32mn
Bit rate mode : Constant
Bit rate : 448 Kbps
Channel(s) : 6 channels
Channel positions : Front: L C R, Side: L R, LFE
Sampling rate : 48.0 KHz
Bit depth : 16 bits
Compression mode : Lossy
Delay relative to video : -42ms
Stream size : 296 MiB (17%)
Title : eng ac3 5.1
Language : English
Default : No
Forced : No


Comments

Unidentified:




Torrent4You Torrentz2 PirateIro