BrowseTrendingLibraryHelp




Title:

3 Storeys 2018 Hindi 720p Pre DVDRip x264 AAC

Health:

Seeders : 9 Leechers: 0 Peers : 9 Completed : 4390

Update:

3 months ago

Rating:

0 0 0

Uploaded:

9 months ago

Uploader:

Unknown

Hash:

4679382e65d3e02729caf1aaada3bcb0879c5786

Origin:

Torrent4You

Size:

880.24 MB

Download:

Magnet

Views:

36

Tags:

Storeys 2018 Hindi 720p Pre DVDRip x264 AAC

Category:

Video /HD - Movies

Share:

http://magnet4you.me/magnet/16582868

Title

3 Storeys 2018 Hindi 720p Pre DVDRip x264 AAC

0 0 0

Download

Statistics

Seeders : 9
Leechers: 0
Peers : 9
Completed : 4390
Uploaded : just now
Created : 9 months ago
Views : 36
Size : 923002444


3 months ago


4679382e65d3e02729caf1aaada3bcb0879c5786

Tag

Storeys 2018 Hindi 720p Pre DVDRip x264 AAC

Category:

Video /HD - Movies


Description

General
Format : Matroska
Format version : Version 4 / Version 2
File size : 880 MiB
Duration : 1 h 34 min
Overall bit rate : 1 308 kb/s

Video
ID : 1
Format : AVC
Format/Info : Advanced Video Codec
Format profile : [email protected]
Format settings : CABAC / 4 Ref Frames
Format settings, CABAC : Yes
Format settings, RefFrames : 4 frames
Codec ID : V_MPEG4/ISO/AVC
Duration : 1 h 34 min
Bit rate : 1 200 kb/s
Width : 1 280 pixels
Height : 540 pixels
Display aspect ratio : 2.40:1
Frame rate mode : Constant
Frame rate : 23.976 (24000/1001) FPS
Color space : YUV
Chroma subsampling : 4:2:0
Bit depth : 8 bits
Scan type : Progressive
Bits/(Pixel*Frame) : 0.072
Stream size : 814 MiB (92%)
Writing library : x264 core 148 r2708 86b7198
Default : Yes
Forced : No

Audio
ID : 2
Format : AAC
Format/Info : Advanced Audio Codec
Format profile : LC
Codec ID : A_AAC-2
Duration : 1 h 34 min
Bit rate : 96.0 kb/s
Channel(s) : 2 channels
Channel positions : Front: L R
Sampling rate : 44.1 kHz
Frame rate : 43.066 FPS (1024 SPF)
Compression mode : Lossy
Stream size : 64.6 MiB (7%)
Language : Hindi
Default : Yes
Forced : No

Trackers history

Date
3 months ago 9 0 4K
9 months ago 0 0 0

Comments

Unidentified:




Torrent4You Torrentz2 PirateIro