BrowseTrendingLibraryHelp




Title:

Captain America Civil War 2016 BRRip 480p x264 AAC-VYTO [P2PDL]

Health:

Seeders : 27 Leechers: 19 Peers : 46 Completed : 0

Update:

2 years ago

Rating:

0 0 0

Uploaded:

2 years ago

Uploader:

VYTOP2PDL

Hash:

fe89a92c2ff88d17b0ff4549ae14fcdd80ab6c61

Origin:

ThePirateBay

Files:

8

Size:

582.67 MB

Download:

Magnet

Views:

1828

Tags:

Captain America Civil War 2016 BRRip 480p x264 AAC VYTO P2PDL

Category:

Video /Movies

Share:

http://magnet4you.me/magnet/16234228

Title

Captain America Civil War 2016 BRRip 480p x264 AAC VYTO P2PDL

0 0 0

Download

Statistics

Seeders : 27
Leechers: 19
Peers : 46
Completed : 0
Uploaded : just now
Created : 2 years ago
Views : 1828
Size : 610974460


2 years ago


fe89a92c2ff88d17b0ff4549ae14fcdd80ab6c61

Tag

Captain America Civil War 2016 BRRip 480p x264 AAC VYTO P2PDL

Category:

Video /Movies


Captain America: Civil War

2016-04-27



Adventure / Action / Science Fiction 147 minutes Produced : United States of America

Following the events of Age of Ultron, the collective governments of the world pass an act designed to regulate all superhuman activity. This polarizes opinion amongst the Avengers, causing two factions to side with Iron Man or Captain America, which causes an epic battle between former allies.

Trailer / Trailer #2
Budget: 240M $ Revenue: 1153M $ Original Language: en
http://marvel.com/captainamericapremiere

Following the events of Age of Ultron, the collective governments of the world pass an act designed to regulate all superhuman activity. This polarizes opinion amongst the Avengers, causing two factions to side with Iron Man or Captain America, which causes an epic battle between former allies.

Stars:

         
Actor: Chris Evans(Steve Rogers / Captain America) Robert Downey Jr.(Tony Stark / Iron Man) Scarlett Johansson(Natasha Romanoff / Black Widow) Sebastian Stan(James "Bucky Barnes" / Winter Soldier) Anthony Mackie(Sam Wilson / Falcon) Don Cheadle(James "Rhodey" Rhodes / War Machine) Jeremy Renner(Clint Barton / Hawkeye) Chadwick Boseman(T'Challa / Black Panther) Paul Bettany(Vision) Elizabeth Olsen(Wanda Maximoff / Scarlet Witch)

Crew: Anthony Russo(Director) Joe Russo(Director) Christopher Markus(Screenplay) Stephen McFeely(Screenplay) Kevin Feige(Producer) Joe Simon(Characters) Jack Kirby(Characters) Jeffrey Ford(Editor) Henry Jackman(Original Music Composer) Alan Fine(Executive Producer)


Description

Captain.America.Civil.War.2016.BRRip.480p.x264.AAC-VYTO


Genre: Action, Adventure, Sci-Fi
http://www.imdb.com/title/tt3498820/


Format : MPEG-4
File size : 577 MiB
Duration : 2 h 27 min
Overall bit rate : 546 kb/s

Video
Format : AVC
Bit rate : 503 kb/s
Width : 720 pixels
Height : 304 pixels
Display aspect ratio : 2.35:1
Frame rate mode : Constant
Frame rate : 23.976 FPS
Bit depth : 8 bits
Stream size : 531 MiB (92%)
Writing library : x264

Audio
Format : AAC
Bit rate mode : Variable
Bit rate : 39.9 kb/s
Channel(s) : 2 channels
Channel positions : Front: L R
Sampling rate : 44.1 kHz
Stream size : 42.2 MiB (7%)
Language : English

Subtitle : Yes (English)

Source : 720p.BluRay

Note: Captain we got, Trump'd!

Screenshots: (Click on the links to view screens!)

https://ititli.com/q2w
https://ititli.com/q22
https://ititli.com/q26
https://ititli.com/q28
https://ititli.com/q2e
https://ititli.com/q2j
https://ititli.com/q2k
https://ititli.com/q2o
https://ititli.com/q2G
https://ititli.com/q2H
https://ititli.com/q2M
https://ititli.com/q2U
https://ititli.com/q2h
https://ititli.com/q2s
https://ititli.com/q2Y

----------------------------------------------------------------------------------------------------


Encoder Notes: Looking For Early Access To Anything You Can Provide WEBDL, DVDScr, DVDR, BluRay,
Direct Audio, Music Releases and Seedboxes. If You Got anything to offer please contact us.

Support us by donating BC - 1FgwdzPsd1y25Gea8wP1qni35uGCtmkRCD


Find us and join us @


Comments

Unidentified:




Torrent4You Torrentz2 PirateIro AIOsearch