BrowseTrendingLibraryHelp




Title:

Todd Sampson's Body Hack - S01E02

Health:

Seeders : 11 Leechers: 8 Peers : 19 Completed : 0

Update:

one year ago

Rating:

0 0 0

Uploaded:

2 years ago

Uploader:

Bullrout

Hash:

886c061d965ec03ec56a5fa4db5e15d9b024a3e3

Origin:

ThePirateBay

Files:

1

Size:

364.75 MB

Download:

Magnet

Views:

198

Tags:

Todd Sampson Body Hack S01E02

Category:

Video /Handheld

Share:

http://magnet4you.me/magnet/16008319

Title

Todd Sampson s Body Hack S01E02

0 0 0

Download

Statistics

Seeders : 11
Leechers: 8
Peers : 19
Completed : 0
Uploaded : just now
Created : 2 years ago
Views : 198
Size : 382469105


one year ago


886c061d965ec03ec56a5fa4db5e15d9b024a3e3

Tag

Todd Sampson Body Hack S01E02

Category:

Video /Handheld


Description

Todd Sampson's Body Hack - S01E02

Join Todd Sampson as he tackles some of the biggest challenges of his life using science as his guide. In this episode, Todd joins a traditional African nomadic tribe to live as a hunter-gatherer.

Complete name : Todd Sampson's Body Hack - S01E02.mp4
Format : MPEG-4
Format profile : Base Media / Version 2
Codec ID : mp42 (mp42/isom/avc1)
File size : 365 MiB
Duration : 45 min 47 s
Overall bit rate mode : Variable
Overall bit rate : 1 114 kb/s


Video
ID : 2
Format : AVC
Format/Info : Advanced Video Codec
Format profile :
Format settings, CABAC : Yes
Format settings, ReFrames : 3 frames
Codec ID : avc1
Codec ID/Info : Advanced Video Coding
Duration : 45 min 47 s
Bit rate mode : Variable
Bit rate : 982 kb/s
Maximum bit rate : 1 000 kb/s
Width : 720 pixels
Height : 404 pixels
Display aspect ratio : 16:9
Original display aspect ratio : 16:9
Frame rate mode : Constant
Frame rate : 25.000 FPS
Standard : PAL
Color space : YUV
Chroma subsampling : 4:2:0
Bit depth : 8 bits
Scan type : Progressive
Bits/(Pixel*Frame) : 0.135
Stream size : 322 MiB (88%)
Writing library : x264 core 112
Color range : Limited
Color primaries : BT.601 PAL
Transfer characteristics : BT.470 System B, BT.470 System G
Matrix coefficients : BT.601

Audio
ID : 1
Format : AAC
Format/Info : Advanced Audio Codec
Format profile : LC
Codec ID : 40
Duration : 45 min 47 s
Bit rate mode : Variable
Bit rate : 128 kb/s
Maximum bit rate : 576 kb/s
Channel(s) : 2 channels
Channel positions : Front: L R
Sampling rate : 48.0 kHz
Frame rate : 46.875 FPS (1024 spf)
Compression mode : Lossy
Stream size : 41.9 MiB (11%)


Comments

Unidentified:




Torrent4You Torrentz2 PirateIro