BrowseTrendingLibraryHelp




Title:

X Men Apocalypse 2016 1080p 3D HSBS Blu-Ray H 264 FiLELiST

Health:

Seeders : 19 Leechers: 10 Peers : 29 Completed : 0

Update:

11 months ago

Rating:

0 0 0

Uploaded:

1 year ago

Uploader:

Alemao99

Hash:

c813f3ebfa0f56be90cb6acc9815697f26e58705

Origin:

ThePirateBay

Files:

8

Size:

13.77 GB

Download:

Magnet

Views:

115

Tags:

Men Apocalypse 2016 1080p 3D HSBS Blu Ray 264 FiLELiST

Category:

Video /3D

Share:

http://magnet4you.me/magnet/15795531

Title

X Men Apocalypse 2016 1080p 3D HSBS Blu Ray H 264 FiLELiST

0 0 0

Download

Statistics

Seeders : 19
Leechers: 10
Peers : 29
Completed : 0
Uploaded : just now
Created : 1 year ago
Views : 115
Size : 14786842654


11 months ago


c813f3ebfa0f56be90cb6acc9815697f26e58705

Tag

Men Apocalypse 2016 1080p 3D HSBS Blu Ray 264 FiLELiST

Category:

Video /3D


Description

Since the beginning of civilization, he was worshiped as a god. Revelation (Oscar Isaac), the first and most powerful mutant Marvel X-Men universe, accumulated the powers of many other mutants, becoming immortal and invincible. Upon waking up after thousands of years, he's disillusioned with the world we are in and recruit a team of powerful mutants, including a daunting Magneto (Michael Fassbender), to purify humanity and create a new world order on which he will reign. As the Earth's fate is in the balance, Raven (Jennifer Lawrence), with the help of Professor Xavier (James McAvoy) to lead a team of X-Men young to stop his greatest enemy and save mankind from destruction.


X-Men.Apocalypse.2016.1080p.3D.H SBS.Blu-Ray.H.264.FiLELiST.DUAL-CHC


English title: X-Men Apocalypse
Original title: X-Men Apocalypse
Country: United States
Genre: Action | adventure | Science fiction
Duration: 2h 23mn
Release Year: 2016
Directed by Bryan Singer

Video Quality: Blu-Ray
Resolution: 1920 x 800 pixels
Video Codec: AVC
Codec Audio: 5.1 DTS / AC3 ​​5.1
Original Language: English & Portuguese
Legend: 2D & 3D Portuguese
File Format: MKV
File Size: 13.77 Gb

IMDB: http://www.imdb.com/title/tt3385516/


X-Men.Apocalypse.2016.1080p.3D.H SBS.Blu-Ray.H.264.FiLELiST.DUAL-CHC

video
ID NO: 1
Format: AVC
Format / Info: Advanced Video Codec
Format profile:
Format settings, CABAC: Yes
Format settings, reframes: 2 frames
Format settings, GOP: M = 3, N = 22
Codec ID: V_MPEG4 / ISO / AVC
Duration: 2h 23mn
Bit rate: 11.5 Mbps
Width: 1,920 pixels
Height: 800 pixels
Display aspect ratio: 2.40: 1
Frame rate: 23.976 fps
Color space: YUV
Chroma subsampling: 4: 2: 0
Bit depth: 8 bits
Scan type: Progressive
Bits / (Pixel * Frame): 0.313
Stream size: 11.6 GiB (84%)
Default: Yes
Forced On

Audio # 1
ID NO: 2
Format: AC-3
Format / Info: Audio Coding 3
Mode extension: CM (complete main)
Codec ID: A_AC3
Duration: 2h 23mn
Bit rate mode: Constant
Bit rate: 384 Kbps
Channel (s): 6 channels
Channel positions: Front: L C R, Side: LR, LFE
Sampling rate: 48.0 KHz
Bit depth: 16-bit
Compression mode: Lossy
Delay relative to video: 1s 0ms
Stream size: 395 MiB (3%)
Language: Portuguese
Default: No
Forced On

Audio # 2
ID: 3
Format: DTS
Format / Info: Digital Theater Systems
Format profile: ES
Codec ID: A_DTS
Duration: 2h 23mn
Bit rate mode: Constant
Bit rate: 510 Kbps 1
Channel (s): 6 channels
Channel positions: Front: L C R, Side: LR, LFE
Sampling rate: 48.0 KHz
Bit depth: 24-bit
Compression mode: Lossy
Stream size: 1:52 GiB (11%)
Language: Inglês
Default: No
Forced On


Comments

Unidentified:




Torrent4You Torrentz2 PirateIro