BrowseTrendingLibraryHelp




Title:

Captain America Civil War (2016) HQ 1080p Blu-ray x264 DTS-HD 7

Health:

Seeders : 32 Leechers: 19 Peers : 51 Completed : 0

Update:

2 years ago

Rating:

0 0 0

Uploaded:

3 years ago

Uploader:

SaM

Hash:

f8905fcf4ae09c85bef92b150c2a4e9d44093d0d

Origin:

ThePirateBay

Files:

3

Size:

17.06 GB

Download:

Magnet

Views:

157

Tags:

Captain America Civil War 2016 HQ 1080p Blu ray x264 DTS HD

Category:

Video /HD - Movies

Share:

http://magnet4you.me/magnet/15728146

Title

Captain America Civil War 2016 HQ 1080p Blu ray x264 DTS HD 7

0 0 0

Download

Statistics

Seeders : 32
Leechers: 19
Peers : 51
Completed : 0
Uploaded : just now
Created : 3 years ago
Views : 157
Size : 18316020336


2 years ago


f8905fcf4ae09c85bef92b150c2a4e9d44093d0d

Tag

Captain America Civil War 2016 HQ 1080p Blu ray x264 DTS HD

Category:

Video /HD - Movies


Description

- HollyWooD Movie-

Captain America
- CiVil War -
** 2016 **
HQ 1080p / Blu-ray / x264
English DTS-HD-MA 7.1
English, French & Dutch Subs

Forced & Hearing Impaired subs included

http://extraimago.com/image/wyzC
http://extraimago.com/image/wyzB
http://extraimago.com/image/wyz4
http://extraimago.com/image/wyze
http://extraimago.com/image/wyzZ
http://extraimago.com/image/wyzK
http://extraimago.com/image/wyzJ
http://extraimago.com/image/wyz0
http://extraimago.com/image/wyzz
http://extraimago.com/image/wyzU
http://extraimago.com/image/wyzM
http://extraimago.com/image/wyz9
http://extraimago.com/image/wyzP
http://extraimago.com/image/wyzG
http://extraimago.com/image/wyzr
http://extraimago.com/image/wyzp
http://extraimago.com/image/wyzY

SOURCE: BD50 @ HDT

File size : 17.0 GiB
Duration : 2 h 27 min
Overall bit rate : 16.4 Mb/s

Video
Format : AVC
Format/Info : Advanced Video Codec
Format profile :
Format settings, CABAC : Yes
Format settings, ReFrames : 5 frames
Codec ID : V_MPEG4/ISO/AVC
Duration : 2 h 27 min
Bit rate : 11.7 Mb/s
Width : 1 920 pixels
Height : 800 pixels
Display aspect ratio : 2.40:1
Frame rate mode : Constant
Frame rate : 23.976 (24000/1001) FPS
color space : YUV
Chroma subsampling : 4:2:0
Bit depth : 8 bits
Scan type : Progressive
Bits/(Pixel*Frame) : 0.318
Stream size : 12.1 GiB (71%)

Audio
Format : DTS
Format/Info : Digital Theater Systems
Format profile : MA / Core
Mode : 16
Format settings, Endianness : Big
Codec ID : A_DTS
Duration : 2 h 27 min
Bit rate mode : Variable / Constant
Bit rate : 4 699 kb/s / 1 509 kb/s
Channel(s) : 8 channels / 6 channels
Channel positions : Front: L C R, Side: L R, Back: L R, LFE / Front: L C R, Side: L R, LFE
Sampling rate : 48.0 kHz
Frame rate : 93.750 FPS (512 spf)
Bit depth : 24 bits
Compression mode : Lossless / Lossy
Stream size : 4.85 GiB (29%)
Language : English
Default : Yes
Forced : No

Chapters = Yes
Sample : Included


Comments

Unidentified:




Torrent4You Torrentz2 PirateIro AIOsearch