BrowseTrendingLibraryHelp




Title:

Captain America Civil War (2016) BRRip XviD-MAXSPEED

Health:

Seeders : 28 Leechers: 5 Peers : 33 Completed : 0

Update:

2 years ago

Rating:

0 0 0

Uploaded:

3 years ago

Uploader:

extremezone

Hash:

74227ecb176c6d6d15ba80396c2831112e7c2980

Origin:

ThePirateBay

Files:

4

Size:

2.05 GB

Download:

Magnet

Views:

350

Tags:

Captain America Civil War 2016 BRRip XviD MAXSPEED

Category:

Video /Movies

Share:

http://magnet4you.me/magnet/15703841

Title

Captain America Civil War 2016 BRRip XviD MAXSPEED

0 0 0

Download

Statistics

Seeders : 28
Leechers: 5
Peers : 33
Completed : 0
Uploaded : just now
Created : 3 years ago
Views : 350
Size : 2204552125


2 years ago


74227ecb176c6d6d15ba80396c2831112e7c2980

Tag

Captain America Civil War 2016 BRRip XviD MAXSPEED

Category:

Video /Movies


Description

http://extraimago.com/images/2016/08/29/wqlH.jpg

Screens:

http://extraimago.com/images/2016/08/29/wqlk.jpg
http://extraimago.com/images/2016/08/29/wqlo.jpg
http://extraimago.com/images/2016/08/29/wqlt.jpg
http://extraimago.com/images/2016/08/29/wqlx.jpg


ScreenCaps:

http://extraimago.com/images/2016/08/29/wqlF.jpg

Captain America Civil War (2016) BRRip XviD-MAXSPEED
Format : AVI
Format/Info : Audio Video Interleave
Format profile : OpenDML
Format settings : rec
File size : 2.05 GiB
Duration : 2h 27mn
Overall bit rate : 1 985 Kbps
Writing application : VirtualDubMod 1.5.10.2 (build 2542/release)
Writing library : VirtualDubMod build 2542/release
Original source form : MAX TORRENTZ
Copyright : SIGISMUNT

Video
ID : 0
Format : MPEG-4 Visual
Format profile : Advanced
Format settings, BVOP : 2
Format settings, QPel : No
Format settings, GMC : No warppoints
Format settings, Matrix : Custom
Codec ID : XVID
Codec ID/Hint : XviD
Duration : 2h 27mn
Bit rate : 1 531 Kbps
Width : 720 pixels
Height : 304 pixels
Display aspect ratio : 2.35:1
Frame rate : 23.976 fps
Color space : YUV
Chroma subsampling : 4:2:0
Bit depth : 8 bits
Scan type : Progressive
Compression mode : Lossy
Bits/(Pixel*Frame) : 0.292
Stream size : 1.58 GiB (77%)
Writing library : XviD 1.2.1 (UTC 2008-12-04)

Audio
ID : 1
Format : AC-3
Format/Info : Audio Coding 3
Mode extension : CM (complete main)
Format settings, Endianness : Big
Codec ID : 2000
Duration : 2h 27mn
Bit rate mode : Constant
Bit rate : 448 Kbps
Channel(s) : 6 channels
Channel positions : Front: L C R, Side: L R, LFE
Sampling rate : 48.0 KHz
Bit depth : 16 bits
Compression mode : Lossy
Stream size : 473 MiB (23%)
Alignment : Aligned on interleaves
Interleave, duration : 64 ms (1.53 video frames)
Interleave, preload duration : 192 ms

Source: Bluray (clean encode/source, perfect a/v/sync quality,sample included)
This torrent is not seedbox supported,please seed it to the MAX

Uploader Note: If you think image it's a little dark on your device then
VLC->Ctrl+E->Video Effects->Image adjust->Brightness->Close, simple as 1,2,3
so no more complaints about this please,thank you

Note: If you have something as early releases, seedboxes http://torentz.3xforum.ro
Seed Stats: 20-400 GiB at aprox 10 MiB/sec/20 slots per torrent

How To Get Your MAXSPEED (uTorrent)

Torrent Client - Preferences - Bandwidth - Number of connections - Set aprox. 500 for each
Torrent Client - Preferences - BiTorrent - Protocol Encryption - Forced
Bandwidth Allocation - High (Set download/upload limit - Unlimited)
Stop Other Active Torrents - Start downloading and wait for connections.
Enjoy and Seed for at least 1:1 ratio. Don't forget to say thanks/leave reviews.
For other 480p, 720p, 1080p, x264, mkv, Bluray HD downloads use search function.
If screens/Caps image host is dead googlesearch release name+screens or sample.
Greets to all actual/future p2p/scene QUALITY groups and affiliate websites.
Don't trust IMDb robots/bots bad ratings,always watch some trailers first.
Ignore stupid comments/fake/mislabeled/no-DVDrips/CAM/TS/RAR uploads.
Please spread this release/torrent to your friends/forums/etc.
If you need translation subs visit some subtitles sites.
Report if you see online streaming or other spam links.
MAXSPEED free full movie downloads 2008-2016.
Recommended movie player VLC PLAYER


Comments

Unidentified:




Torrent4You Torrentz2 PirateIro AIOsearch