BrowseTrendingLibraryHelp




Title:

Dalziel & Pascoe S05

Health:

Seeders : 2 Leechers: 3 Peers : 5 Completed : 0

Update:

one year ago

Rating:

0 0 0

Uploaded:

2 years ago

Uploader:

RedBaron58

Hash:

8f0cbeb2d8c02119b90956b76fbcbb6f60b5d18e

Origin:

ThePirateBay

Files:

4

Size:

2.54 GB

Download:

Magnet

Views:

219

Tags:

Dalziel & Pascoe S05

Category:

Video /Handheld

Share:

http://magnet4you.me/magnet/15508728

Title

Dalziel & Pascoe S05

0 0 0

Download

Statistics

Seeders : 2
Leechers: 3
Peers : 5
Completed : 0
Uploaded : just now
Created : 2 years ago
Views : 219
Size : 2725866561


one year ago


8f0cbeb2d8c02119b90956b76fbcbb6f60b5d18e

Tag

Dalziel & Pascoe S05

Category:

Video /Handheld


Description

Dalziel and Pascoe S05 DVDrip x264 mp4

http://www.imdb.com/title/tt0147760/

Thank you for your kind comments and feedback on my other torrents, your feedback is welcome.

Uploader note, minor pixelation and sound problem at 8 mins on episode 3 which recovers in
few seconds.

About the Series:
The series is primarily set in Yorkshire, and follows the work of two detectives that are
thrown together as partners. Complete opposites. Different backgrounds, different beliefs,
different styles. They get on each other's nerves.

Episode 1 A Sweeter Lazarus
When a suspected serial killer jumps to his death from the roof of a homeless hostel,
the only witness is a homeless girl, who goes by the name of Abbie Hallingsworth,
a girl who has been missing for nineteen years

Episode 2 Cunning Old Fox
The death of Georgina Webster, a young business woman who falls from her horse during
a fox hunt, turns out to be more than an accident when the leader of the hunt is sent
a letter to that effect

Episode 3 Foreign Bodies
Dalziel and Pascoe are tasked with investigating four suspicious deaths that occur
within hours of each other.

Episode 4 Above the Law
When high court judge Jerry Chance is shot dead at point blank range, the immediate
suspect is large-scale drugs importer Kenneth Barbour.

I hope you enjoy.

Technical: (All episodes are encoded to the same settings)

General
Complete name : I:Dalziel & Pascoe S05Dalziel Pascoe S05E01 - A Sweeter Lazarus x264 RB58.mp4
Format : MPEG-4
Format profile : Base Media / Version 2
Codec ID : mp42
File size : 646 MiB
Duration : 1h 30mn
Overall bit rate mode : Variable
Overall bit rate : 1 000 Kbps
Encoded date : UTC 2016-07-31 16:08:18
Tagged date : UTC 2016-07-31 16:11:21
Writing application : HandBrake 0.9.8 2012071700

Video
ID : 1
Format : AVC
Format/Info : Advanced Video Codec
Format profile :
Format settings, CABAC : Yes
Format settings, ReFrames : 4 frames
Codec ID : avc1
Codec ID/Info : Advanced Video Coding
Duration : 1h 30mn
Bit rate : 900 Kbps
Width : 720 pixels
Height : 572 pixels
Display aspect ratio : 16:9
Frame rate mode : Constant
Frame rate : 25.000 fps
Color space : YUV
Chroma subsampling : 4:2:0
Bit depth : 8 bits
Scan type : Progressive
Bits/(Pixel*Frame) : 0.087
Stream size : 581 MiB (90%)
Writing library : x264 core 120
Encoding settings : cabac=1 / ref=1 / deblock=1:0:0
Encoded date : UTC 2016-07-31 16:08:18
Tagged date : UTC 2016-07-31 16:11:21
Color range : Limited
Color primaries : BT.601 NTSC
Transfer characteristics : BT.709
Matrix coefficients : BT.601

Audio
ID : 2
Format : AAC
Format/Info : Advanced Audio Codec
Format profile : LC
Codec ID : 40
Duration : 1h 30mn
Bit rate mode : Variable
Bit rate : 96.0 Kbps
Maximum bit rate : 118 Kbps
Channel(s) : 2 channels
Channel positions : Front: L R
Sampling rate : 48.0 KHz
Compression mode : Lossy
Stream size : 62.0 MiB (10%)
Title : Stereo
Language : English


Comments

Unidentified:




Torrent4You Torrentz2 PirateIro