BrowseTrendingLibraryHelp




Title:

Bandit Queen 1994 HQ 1080p Blu-ray x264 DTS-HDMA 2 0 ESub -DDR

Health:

Seeders : 0 Leechers: 2 Peers : 2 Completed : 0

Update:

one year ago

Rating:

0 0 0

Uploaded:

2 years ago

Uploader:

SaM

Hash:

227182c8ad9d84222ffc4bce85d33abec5daad3b

Origin:

ThePirateBay

Files:

3

Size:

9.83 GB

Download:

Magnet

Views:

160

Tags:

Bandit Queen 1994 HQ 1080p Blu ray x264 DTS HDMA ESub DDR

Category:

Video /Handheld

Share:

http://magnet4you.me/magnet/14690727

Title

Bandit Queen 1994 HQ 1080p Blu ray x264 DTS HDMA 2 0 ESub DDR

0 0 0

Download

Statistics

Seeders : 0
Leechers: 2
Peers : 2
Completed : 0
Uploaded : just now
Created : 2 years ago
Views : 160
Size : 10552751813


one year ago


227182c8ad9d84222ffc4bce85d33abec5daad3b

Tag

Bandit Queen 1994 HQ 1080p Blu ray x264 DTS HDMA ESub DDR

Category:

Video /Handheld


Description

- HollywooD MoviE -
**- Bandit Queen -**
- 1994 -
** HQ 1080p Blu-Ray / x264 / DTS-HDMA 2.0 **
English subtitle(s)

~* SCREENSHOTS *~

http://extraimago.com/image/azY7
http://extraimago.com/image/azYs
http://extraimago.com/image/azYn
http://extraimago.com/image/azYj
http://extraimago.com/image/azYT
http://extraimago.com/image/azYN
http://extraimago.com/image/azY2
http://extraimago.com/image/azYw


[ Specs ]
General
Source = BD50 @ HDT
Format : Matroska
File size : 9.72 GiB
Duration : 1h 59mn
Overall bit rate : 11.6 Mbps

Video
Format : AVC
Format profile :
Bit rate : 10 000 Kbps
Height : 1 080 pixels
Display aspect ratio : 16:9
Frame rate mode : Constant
Frame rate : 23.976 (24000/1001) fps
Bit depth : 8 bits
Scan type : Progressive
Stream size : 8.35 GiB (86%)
Transfer characteristics : BT.709

Audio #1
Format : DTS
Format/Info : Digital Theater Systems
Format profile : MA / Core
Mode : 16
Format settings, Endianness : Big
Codec ID : A_DTS
Duration : 1h 59mn
Bit rate mode : Variable / Constant
Bit rate : 1 635 Kbps / 768 Kbps
Channel(s) : 2 channels
Channel positions : Front: L R
Sampling rate : 48.0 KHz
Frame rate : 93.750 fps (512 spf)
Bit depth : 24 bits
Compression mode : Lossless / Lossy
Stream size : 1.37 GiB (14%)
Language : Hindi
Default : Yes
Forced : No

Chapters: YES
Sample: YES - included

A DDR Exclusive Release...!


Comments

Unidentified:




Torrent4You Torrentz2 PirateIro