BrowseTrendingLibraryHelp




Title:

Snapper Hero Snapchat Session 1 (03/10/2015) (Unedited)

Health:

Seeders : 1 Leechers: 1 Peers : 2 Completed : 0

Update:

11 months ago

Rating:

0 0 0

Uploaded:

3 years ago

Uploader:

geiszla

Hash:

cb931e02abdc3ebe133d7cfb9227db07e85c1195

Origin:

ThePirateBay

Files:

32

Size:

42.44 MB

Download:

Magnet

Views:

129

Tags:

Snapper Hero Snapchat Session 03/10/2015 Unedited

Category:

Video /Handheld

Share:

http://magnet4you.me/magnet/11746538

Title

Snapper Hero Snapchat Session 1 03/10/2015 Unedited

0 0 0

Download

Statistics

Seeders : 1
Leechers: 1
Peers : 2
Completed : 0
Uploaded : just now
Created : 3 years ago
Views : 129
Size : 44497537


11 months ago


cb931e02abdc3ebe133d7cfb9227db07e85c1195

Tag

Snapper Hero Snapchat Session 03/10/2015 Unedited

Category:

Video /Handheld


Description

Episode 1 from Snapper Hero (03/10/2015)

Tech Specs:
General
Complete name : C:[...]snapperhero-10-03-2015-22_53_00.mov
Format : MPEG-4
Format profile : Base Media / Version 2
Codec ID : mp42
File size : 1.77 MiB
Duration : 7s 967ms
Overall bit rate : 1 864 Kbps
Encoded date : UTC 2015-03-10 19:51:18
Tagged date : UTC 2015-03-10 19:51:19

Video
ID : 2
Format : AVC
Format/Info : Advanced Video Codec
Format profile : class=__cf_email__ /cdn-cgi/l/email-protection data-cfemail=c28aaba5aa828ef1ecf2>[email protected]<script cf-hash='f9e31' type=text/javascript>
/* <![CDATA[ */!function(){try{var t=currentScriptin document?document.currentScript:function(){for(var t=document.getElementsByTagName(script),e=t.length;e--;)if(t[e].getAttribute(cf-hash))return t[e]}();if(t&&t.previousSibling){var e,r,n,i,c=t.previousSibling,a=c.getAttribute(data-cfemail);if(a){for(e=,r=parseInt(a.substr(0,2),16),n=2;a.length-n;n+=2)i=parseInt(a.substr(n,2),16)^r,e+=String.fromCharCode(i);e=document.createTextNode(e),c.parentNode.replaceChild(e,c)}}}catch(u){}}();/* ]]> */</script>
Format settings, CABAC : Yes
Format settings, ReFrames : 2 frames
Codec ID : avc1
Codec ID/Info : Advanced Video Coding
Duration : 7s 967ms
Bit rate : 1 606 Kbps
Width : 376 pixels
Height : 668 pixels
Display aspect ratio : 0.563
Frame rate mode : Constant
Frame rate : 30.000 fps
Color space : YUV
Chroma subsampling : 4:2:0
Bit depth : 8 bits
Scan type : Progressive
Bits/(Pixel*Frame) : 0.213
Stream size : 1.53 MiB (86%)
Title : Core Media Video
Encoded date : UTC 2015-03-10 19:51:19
Tagged date : UTC 2015-03-10 19:51:19
Color primaries : BT.709
Transfer characteristics : BT.709
Matrix coefficients : BT.601
Color range : Limited

Audio
ID : 1
Format : AAC
Format/Info : Advanced Audio Codec
Format profile : LC
Codec ID : 40
Duration : 7s 963ms
Source duration : 8s 34ms
Bit rate mode : Constant
Bit rate : 256 Kbps
Channel(s) : 2 channels
Channel positions : Front: L R
Sampling rate : 44.1 KHz
Compression mode : Lossy
Stream size : 244 KiB (13%)
Source stream size : 245 KiB (14%)
Title : Core Media Audio
Encoded date : UTC 2015-03-10 19:51:19
Tagged date : UTC 2015-03-10 19:51:19

Note: I just uploaded this torrent for those who are not able to watch it on snapchat. Please do it, if you can!


Comments

Unidentified:




Torrent4You Torrentz2 PirateIro