BrowseTrendingLibraryHelp




Title:

Dumb And Dumber To 2014 720p HDCAM FIRST ENG x264

Health:

Seeders : 8 Leechers: 0 Peers : 8 Completed : 0

Update:

one year ago

Rating:

0 0 0

Uploaded:

3 years ago

Uploader:

so2dya201

Hash:

a7e6cae9783b5a1129f262eaed33e30879376179

Origin:

ThePirateBay

Files:

1

Size:

1.81 GB

Download:

Magnet

Views:

178

Tags:

Dumb And Dumber To 2014 720p HDCAM FIRST ENG x264

Category:

Video /Handheld

Share:

http://magnet4you.me/magnet/11518095

Title

Dumb And Dumber To 2014 720p HDCAM FIRST ENG x264

0 0 0

Download

Statistics

Seeders : 8
Leechers: 0
Peers : 8
Completed : 0
Uploaded : just now
Created : 3 years ago
Views : 178
Size : 1943902748


one year ago


a7e6cae9783b5a1129f262eaed33e30879376179

Tag

Dumb And Dumber To 2014 720p HDCAM FIRST ENG x264

Category:

Video /Handheld


Description

Video
ID : 1
Format : MPEG-4 Visual
Format profile : [email protected]
Format settings, BVOP : No
Format settings, QPel : No
Format settings, GMC : No warppoints
Format settings, Matrix : Default (H.263)
Codec ID : 20
Duration : 1h 42mn
Bit rate : 2 394 Kbps
Width : 1 280 pixels
Height : 536 pixels
Display aspect ratio : 2.40:1
Frame rate mode : Variable
Frame rate : 59.940 fps
Minimum frame rate : 59.916 fps
Maximum frame rate : 60.157 fps
Color space : YUV
Chroma subsampling : 4:2:0
Bit depth : 8 bits
Scan type : Progressive
Compression mode : Lossy
Bits/(Pixel*Frame) : 0.058
Stream size : 1.71 GiB (95%)
Writing library : ZJMedia MPEG Encoder

Audio
ID : 2
Format : AAC
Format/Info : Advanced Audio Codec
Format profile : LC
Codec ID : 40
Duration : 1h 42mn
Bit rate mode : Variable
Bit rate : 128 Kbps
Channel(s) : 2 channels
Channel positions : Front: L R
Sampling rate : 48.0 KHz
Compression mode : Lossy
Stream size : 93.9 MiB (5%)

[URL=http://someimage.com/shy2xr4][IMG]http://t1.someimage.com/shy2xr4.jpg[/IMG][/URL] [URL=http://someimage.com/rBIBw3y][IMG]http://t1.someimage.com/rBIBw3y.jpg[/IMG][/URL] [URL=http://someimage.com/Z8xYcDQ][IMG]http://t1.someimage.com/Z8xYcDQ.jpg[/IMG][/URL] [URL=http://someimage.com/D1FSAwg][IMG]http://t1.someimage.com/D1FSAwg.jpg[/IMG][/URL] [URL=http://someimage.com/x4YAhE2][IMG]http://t1.someimage.com/x4YAhE2.jpg[/IMG][/URL]



http://someimage.com/shy2xr4 rel=nofollow target=_NEW>
http://someimage.com/shy2xr4
http://someimage.com/rBIBw3y rel=nofollow target=_NEW>
http://someimage.com/rBIBw3y
http://someimage.com/Z8xYcDQ rel=nofollow target=_NEW>
http://someimage.com/Z8xYcDQ
http://someimage.com/D1FSAwg rel=nofollow target=_NEW>
http://someimage.com/D1FSAwg
http://someimage.com/x4YAhE2 rel=nofollow target=_NEW>
http://someimage.com/x4YAhE2


Comments

Unidentified:




Torrent4You Torrentz2 PirateIro