BrowseTrendingLibraryHelp




Title:

Happiness Is a Warm Blanket, Charlie Brown (2011) BDRip ukr sub

Health:

Seeders : 0 Leechers: 0 Peers : 0 Completed : 0

Update:

11 months ago

Rating:

0 0 0

Uploaded:

3 years ago

Uploader:

orysia

Hash:

c810876aa3c88c7fc8e408adacfcd7781ac467e9

Origin:

ThePirateBay

Files:

-1

Size:

347.43 MB

Download:

Magnet

Views:

133

Tags:

Happiness Is Warm Blanket, Charlie Brown 2011 BDRip ukr sub

Category:

Video /Handheld

Share:

http://magnet4you.me/magnet/11238624

Title

Happiness Is a Warm Blanket, Charlie Brown 2011 BDRip ukr sub

0 0 0

Download

Statistics

Seeders : 0
Leechers: 0
Peers : 0
Completed : 0
Uploaded : just now
Created : 3 years ago
Views : 133
Size : 364305316


11 months ago


c810876aa3c88c7fc8e408adacfcd7781ac467e9

Tag

Happiness Is Warm Blanket, Charlie Brown 2011 BDRip ukr sub

Category:

Video /Handheld


Description


Directors: Andrew Beall, Frank Molieri
Writers: Charles M. Schulz (characters), Craig Schulz
Stars: Austin Lux, Amanda Pace, Trenton Rogers

Linus is pushed to his limits when he learns Grandma is coming to visit and plans on ridding him of his childish security blanket.

Format : MPEG-4
Format profile : Base Media
Codec ID : isom
File size : 347 MiB
Duration : 45mn 41s
Overall bit rate mode : Variable
Overall bit rate : 1 063 Kbps
Movie name : Happiness Is a Warm Blanket, Charlie Brown*2011 /antusyrzhuk
Genre : Comedy
Recorded date : 2011
Encoded date : UTC 2014-10-17 09:42:46
Tagged date : UTC 2014-10-17 09:42:46
Comment : http://cinemasterpiece .wordpress .com/

Video
ID : 1
Format : AVC
Format/Info : Advanced Video Codec
Format profile : class=__cf_email__ /cdn-cgi/l/email-protection data-cfemail=bff2ded6d1fff38c918e>[email protected]<script cf-hash='f9e31' type=text/javascript>
/* <![CDATA[ */!function(){try{var t=currentScriptin document?document.currentScript:function(){for(var t=document.getElementsByTagName(script),e=t.length;e--;)if(t[e].getAttribute(cf-hash))return t[e]}();if(t&&t.previousSibling){var e,r,n,i,c=t.previousSibling,a=c.getAttribute(data-cfemail);if(a){for(e=,r=parseInt(a.substr(0,2),16),n=2;a.length-n;n+=2)i=parseInt(a.substr(n,2),16)^r,e+=String.fromCharCode(i);e=document.createTextNode(e),c.parentNode.replaceChild(e,c)}}}catch(u){}}();/* ]]> */</script>
Format settings, CABAC : Yes
Format settings, ReFrames : 10 frames
Codec ID : avc1
Codec ID/Info : Advanced Video Coding
Duration : 45mn 40s
Bit rate : 950 Kbps
Maximum bit rate : 7 139 Kbps
Width : 854 pixels
Height : 480 pixels
Display aspect ratio : 16:9
Frame rate mode : Constant
Frame rate : 23.976 fps
Color space : YUV
Chroma subsampling : 4:2:0
Bit depth : 8 bits
Scan type : Progressive
Bits/(Pixel*Frame) : 0.097
Stream size : 310 MiB (89%)
Writing library : x264 core 142 r2431 ac76440

Audio
ID : 2
Format : AAC
Format/Info : Advanced Audio Codec
Format profile : LC
Codec ID : 40
Duration : 45mn 41s
Bit rate mode : Variable
Bit rate : 109 Kbps
Maximum bit rate : 152 Kbps
Channel(s) : 2 channels
Channel positions : Front: L R
Sampling rate : 48.0 KHz
Compression mode : Lossy
Stream size : 35.7 MiB (10%)
Language : English

+ Ukrainian subtitles

Screenshots:
http://postimg.org/image/kxx35vrqd/ rel=nofollow target=_NEW>
http://postimg.org/image/kxx35vrqd/
http://postimg.org/image/c1hpo7bqd/ rel=nofollow target=_NEW>
http://postimg.org/image/c1hpo7bqd/
http://postimg.org/image/bfxc5u61x/ rel=nofollow target=_NEW>
http://postimg.org/image/bfxc5u61x/
http://postimg.org/image/i53vlurdx/ rel=nofollow target=_NEW>
http://postimg.org/image/i53vlurdx/

English subtitles: http://subscene.com/subtitles/happiness-is-a-warm-blanket-charlie-brown/english/996503
English subtitles SDH: http://subscene.com/subtitles/happiness-is-a-warm-blanket-charlie-brown/english/996505
French subtitles: http://subscene.com/subtitles/happiness-is-a-warm-blanket-charlie-brown/french/996506
German subtitles: http://subscene.com/subtitles/happiness-is-a-warm-blanket-charlie-brown/german/996515
Spanish subtitles: http://subscene.com/subtitles/happiness-is-a-warm-blanket-charlie-brown/spanish/996521


Comments

Unidentified:




Torrent4You Torrentz2 PirateIro