BrowseTrendingLibraryHelp




Title:

Thor (2011) BRrip 720p x264 Dual Audio [Eng DD 5 1-Hindi DD 5 1]

Health:

Seeders : 16 Leechers: 3 Peers : 19 Completed : 9204

Update:

4 weeks ago

Rating:

0 0 0

Uploaded:

4 years ago

Uploader:

Xdesiars

Hash:

3203140ab635d55fdb9fe349ab3b3a169ef122ed

Origin:

ThePirateBay

Files:

5

Size:

1.34 GB

Download:

Magnet

Views:

972

Tags:

Thor 2011 BRrip 720p x264 Dual Audio Eng DD 5 Hindi DD

Category:

Video /HD - Movies

Share:

http://magnet4you.me/magnet/11142156

Title

Thor 2011 BRrip 720p x264 Dual Audio Eng DD 5 1 Hindi DD 5 1

0 0 0

Download

Statistics

Seeders : 16
Leechers: 3
Peers : 19
Completed : 9204
Uploaded : just now
Created : 4 years ago
Views : 972
Size : 1443455899


4 weeks ago


3203140ab635d55fdb9fe349ab3b3a169ef122ed

Tag

Thor 2011 BRrip 720p x264 Dual Audio Eng DD 5 Hindi DD

Category:

Video /HD - Movies


Description

Format : Matroska
Format version : Version 2
File size : 1.33 GiB
Duration : 1h 54mn
Overall bit rate : 1 661 Kbps
Movie name : Thor (2011) by XdesiArsenal [ExD-XMR]
Encoded date : UTC 2014-10-01 16:36:33
Writing application : mkvmerge v5.0.1 ('Es ist Sommer') built on Nov 23 2011 20:48:57
Writing library : libebml v1.2.2 + libmatroska v1.3.0

Video
ID : 1
Format : AVC
Format/Info : Advanced Video Codec
Format profile : class=__cf_email__ /cdn-cgi/l/email-protection data-cfemail=7a371b13143a3649544b>[email protected]<script cf-hash='f9e31' type=text/javascript>
/* <![CDATA[ */!function(){try{var t=currentScriptin document?document.currentScript:function(){for(var t=document.getElementsByTagName(script),e=t.length;e--;)if(t[e].getAttribute(cf-hash))return t[e]}();if(t&&t.previousSibling){var e,r,n,i,c=t.previousSibling,a=c.getAttribute(data-cfemail);if(a){for(e=,r=parseInt(a.substr(0,2),16),n=2;a.length-n;n+=2)i=parseInt(a.substr(n,2),16)^r,e+=String.fromCharCode(i);e=document.createTextNode(e),c.parentNode.replaceChild(e,c)}}}catch(u){}}();/* ]]> */</script>
Format settings, CABAC : Yes
Format settings, ReFrames : 4 frames
Muxing mode : Header stripping
Codec ID : V_MPEG4/ISO/AVC
Duration : 1h 54mn
Bit rate : 1 148 Kbps
Width : 1 280 pixels
Height : 544 pixels
Display aspect ratio : 2.35:1
Frame rate mode : Constant
Frame rate : 23.976 fps
Color space : YUV
Chroma subsampling : 4:2:0
Bit depth : 8 bits
Scan type : Progressive
Bits/(Pixel*Frame) : 0.069
Stream size : 943 MiB (69%)
Title : Thor (2011) by XdesiArsenal [ExD-XMR]
Writing library : x264 core 112
Language : English
Default : Yes
Forced : No
Color primaries : BT.709
Transfer characteristics : BT.709
Matrix coefficients : BT.709

Audio #1
ID : 2
Format : AC-3
Format/Info : Audio Coding 3
Mode extension : CM (complete main)
Format settings, Endianness : Big
Muxing mode : Header stripping
Codec ID : A_AC3
Duration : 1h 54mn
Bit rate mode : Constant
Bit rate : 256 Kbps
Channel(s) : 6 channels
Channel positions : Front: L C R, Side: L R, LFE
Sampling rate : 48.0 KHz
Bit depth : 16 bits
Compression mode : Lossy
Stream size : 210 MiB (15%)
Title : XdesiArsenal
Language : Hindi
Default : No
Forced : No

Audio #2
ID : 3
Format : AC-3
Format/Info : Audio Coding 3
Mode extension : CM (complete main)
Format settings, Endianness : Big
Muxing mode : Header stripping
Codec ID : A_AC3
Duration : 1h 54mn
Bit rate mode : Constant
Bit rate : 224 Kbps
Channel(s) : 6 channels
Channel positions : Front: L C R, Side: L R, LFE
Sampling rate : 48.0 KHz
Bit depth : 16 bits
Compression mode : Lossy
Stream size : 184 MiB (13%)
Title : XdesiArsenal
Language : English
Default : Yes
Forced : No

Trackers history

Date
3 weeks ago 16 3 9K
1 year ago 15 12 0

Comments

Unidentified:




Torrent4You Torrentz2 PirateIro